#TITLE:Mario;
#SUBTITLE:;
#ARTIST:FireStorm;
#TITLETRANSLIT:;
#SUBTITLETRANSLIT:;
#ARTISTTRANSLIT:;
#CREDIT:;
#BANNER:mario bn.png;
#BACKGROUND:mario bg.png;
#LYRICSPATH:;
#CDTITLE:cdtitle.png;
#MUSIC:MARIO.mp3;
#OFFSET:-0.042;
#SAMPLESTART:0.003;
#SAMPLELENGTH:12.000;
#SELECTABLE:YES;
#BPMS:0.000=209.023,64.000=209.021;
#STOPS:;
#BGCHANGES:;
// cache tags:
#FIRSTBEAT:0.000;
#LASTBEAT:165.000;
#SONGFILENAME:Songs/Music V.I.P ^_^/Mario/MARIO.sm;
#HASMUSIC:1;
#HASBANNER:1;
#MUSICLENGTH:49.771;
// end cache tags

//---------------dance-single - Blank----------------
#NOTES:
     dance-single:
     Blank:
     Hard:
     22:
     1.000,1.000,1.000,0.000,1.000,653.000,635.000,0.000,0.000,7.000:

0111
0011
0011
0011
0110
0110
0110
0110
,
1100
0000
0000
0000
0000
0000
0000
0000
1100
0000
0000
0000
0000
0000
0000
0000
1100
0000
0000
0000
0000
0000
0000
0000
1100
0000
0000
0000
0000
0000
0000
0000
1110
0000
0000
0000
0000
0000
0000
0000
0000
0000
0000
0000
0000
0000
0000
0000
0001
0010
0000
0000
0000
0000
0000
0000
0000
0000
0000
0000
0000
0000
0000
0000
,
1111
0000
1100
0110
0000
0110
0011
0000
0110
1100
0000
0011
0110
0000
1100
1100
0000
0110
0101
0000
0110
0011
0000
0011
,
1001
0000
1100
0110
0000
0011
0011
0000
0110
1100
0000
0110
1100
0000
1100
0011
0000
0011
0110
0000
1010
1001
0000
1001
,
1100
0000
0101
0110
0000
1010
1001
0000
0110
0011
0000
0011
0110
0000
1010
1001
0000
0110
0011
0000
1001
1100
0000
0011
,
0110
0000
0000
0000
0000
0000
0000
0000
0000
0000
0000
0000
0000
0000
0000
0000
1010
0000
0000
0000
0000
0000
0000
0000
0011
0000
0000
0000
0000
0000
0000
0000
0000
0000
0000
0000
0000
0000
0000
0000
0110
0000
0000
0000
0000
0000
0000
0000
1100
0000
0000
0000
0000
0000
0000
0000
0000
0000
0000
0000
0000
0000
0000
0000
0101
0000
0000
0000
0000
0000
0000
0000
0110
0000
0000
0000
0000
0000
0000
0000
0000
0000
0000
0000
0000
0000
0000
0000
1010
0000
0000
0000
0000
0000
0000
0000
1010
0000
0000
0000
0000
0000
0000
0000
0000
0000
0000
0000
0000
0000
0000
0000
0000
0000
0000
0000
0000
0000
0000
0000
0010
0000
0000
0000
0000
0000
0010
0000
0000
0000
0000
0000
0000
0000
0000
0000
0010
0000
0000
0000
0000
0000
0000
0000
0100
0000
0000
0000
0000
0000
0000
0000
0000
0000
0000
0000
0100
0000
0000
0000
0100
0000
0000
0000
0000
0000
0000
0000
0000
0000
0000
0000
0000
0000
0000
0000
0000
0000
0000
0000
0000
0000
0000
0000
0000
0000
0000
0000
0000
0000
0000
0000
,
1001
0000
0110
1010
0000
0110
0011
0000
1001
0110
0000
0011
1001
0000
0110
0110
0000
1100
0011
0000
0110
1100
0000
1001
,
0110
0000
0101
0101
0000
1010
1010
0000
0011
0110
0000
1010
0101
0000
0110
0011
0000
0101
0110
0000
0110
1100
0000
1100
,
1001
0000
0011
1001
0000
0011
0110
0000
1010
0011
0000
0110
1100
0000
0101
1100
0000
1100
0110
0000
0101
0101
0000
0110
,
0011
0000
0110
1100
0000
0110
0110
0000
0011
1001
0000
1100
0110
0000
0101
1100
0000
1100
0101
0000
0110
0011
0000
0101
,
1100
0000
1010
1001
0000
0101
0110
0000
1010
0011
0000
0110
0011
0000
1100
0110
0000
0101
1100
0000
0110
1001
0000
1010
,
0110
0000
0000
0000
0000
0000
0000
0000
0000
0000
0000
0000
0000
0000
0000
0000
0000
0000
0000
0000
0000
0000
0000
0000
0110
0001
0000
0000
0000
0000
0000
0000
0000
0000
0000
0000
0000
0000
0000
0000
0110
1000
0000
0000
0000
0000
0000
0000
0011
0100
0000
0000
0000
0000
0000
0000
1100
0000
0000
0000
1100
0000
0000
0000
,
0110
0110
1010
1010
0011
0011
1001
1001
0101
0101
0011
0011
1010
1010
1100
1100
,
1001
1001
0101
0011
0011
0011
0110
0110
1100
1100
0110
0110
0011
0011
0101
0101
,
1001
1001
0110
0110
0011
0011
1010
1010
0110
0110
1010
1010
1100
1100
1001
1001
,
0101
0101
0011
0011
0110
0110
0101
0101
1010
1010
0110
0110
1110
1110
0000
0000
,
1011
1011
0110
0110
1100
1100
0011
0011
0110
0110
1010
1010
0110
0110
0101
0101
,
0011
0011
1001
1001
0110
0110
0101
0101
0110
0110
1001
1001
0011
0011
0110
0110
,
1100
1100
0011
0011
1100
1100
0110
0110
0011
0011
1001
1001
0110
0110
1010
1010
,
0101
0000
0000
0101
0000
0000
1010
0000
0000
1010
0000
0000
0110
0000
1001
0000
0110
0000
1001
0000
0110
0000
1001
0000
0110
0000
1001
0000
0110
0000
1001
0000
0110
0000
1001
0000
0110
0000
1001
0000
0110
0000
1001
0000
0110
0000
1001
0000
,
0110
1001
0110
1001
0110
1001
0110
1001
0110
1001
0110
1001
0110
1001
0110
1001
0110
1001
0110
1001
0110
1001
0110
1001
,
0110
1001
0110
1001
0110
1001
0110
1001
0110
1001
0000
0110
1010
0000
0011
0110
0000
0110
0101
0000
1100
0011
0000
0110
,
0110
0000
0101
1010
0000
1010
0101
0000
0110
0101
0000
0101
1010
0000
0011
0101
0000
0101
1001
0000
1010
0011
0000
0110
,
1100
0000
0101
0110
0000
0011
1001
0000
1100
0011
0000
0110
1100
0000
0011
0110
0000
1100
1001
0000
1010
0011
0000
0101
,
0110
0000
0000
0000
0000
0000
0000
0000
0000
0000
0000
0000
0000
0000
0000
0000
0110
0000
0000
0000
0000
0000
0000
0000
1010
0000
0000
0000
0000
0000
0000
0000
0000
0000
0000
0000
0000
0000
0000
0000
0101
0000
0000
0000
0000
0000
0000
0000
0110
0000
0000
0000
0000
0000
0000
0000
0000
0000
0000
0000
0000
0000
0000
0000
0110
0000
0000
0000
0000
0000
0000
0000
0101
0000
0000
0000
0000
0000
0000
0000
0000
0000
0000
0000
0000
0000
0000
0000
0100
0000
0000
0000
0000
0000
0000
0000
0110
0000
0000
0000
0000
0000
0000
0000
0000
0000
0000
0000
0000
0000
0000
0000
1001
0000
0000
0000
0000
0000
0000
0000
1010
0000
0000
0000
0000
0000
0000
0000
0000
0000
0000
0000
0000
0000
0000
0000
1010
0000
0000
0000
0000
0000
0000
0000
1001
0000
0000
0000
0000
0000
0000
0000
0000
0000
0000
0000
0000
0000
0000
0000
0000
0000
0000
0000
0000
0000
0000
0000
1000
0000
0000
0000
0000
0000
1000
0000
0000
0000
0000
0000
0000
0000
0000
0000
1000
0000
0000
0000
0000
0000
0000
0000
,
0001
0000
0000
0001
0001
0000
0000
0000
0000
0000
0000
0000
0110
0000
0000
0000
1010
0000
1010
0000
0000
0000
0110
0000
0101
0000
0000
0000
0110
0000
0011
0000
0000
0000
1010
0000
0011
0000
0000
0000
0101
0000
1100
0000
0000
0000
0110
0000
,
0110
0000
1001
1100
0000
1010
0011
0000
0110
0011
0000
0101
1100
0000
0101
0110
0000
1010
1001
0000
1001
0110
0000
0101
,
1001
0000
1100
0110
0000
1010
0011
0000
0101
1100
0000
0011
0011
0000
0110
0110
0000
1010
1001
0000
0101
0011
0000
0110
,
1100
0000
0011
0110
0000
0110
1001
0000
1010
0110
0000
1010
0101
0000
0101
0011
0000
0101
1100
0000
1100
0110
0000
1001
,
0011
0000
0101
1100
0000
1010
0110
0000
1001
0101
0000
0110
0110
0000
1100
1100
0000
0110
0101
0000
1010
0011
0000
0110
,
0101
0000
0011
0110
0000
0110
1010
0000
0011
1001
0000
0110
0101
0000
1100
0110
0000
0011
1100
0000
0011
0110
0000
1100
,
0101
0000
0110
1010
0000
0011
0110
0000
0110
1100
0000
1010
0101
0000
1010
0011
0000
0101
0110
0000
1100
1001
0000
0011
,
0110
0000
1100
0011
0000
0110
1100
0000
0101
1010
0000
1100
1010
0000
0110
1100
0000
1100
0011
0000
0101
0110
0000
0110
,
1010
0000
0101
0101
0000
1010
0110
0000
0101
1001
0000
1001
0011
0000
1001
1100
0000
1100
0110
0000
0011
1001
0000
1100
,
0110
0000
0000
0000
0000
0000
0000
0000
0000
0000
0000
0000
0000
0000
0000
0000
0110
0000
0000
0000
0000
0000
0000
0000
0011
0000
0000
0000
0000
0000
0000
0000
0000
0000
0000
0000
0000
0000
0000
0000
0110
0000
0000
0000
0000
0000
0000
0000
1100
0000
0000
0000
0000
0000
0000
0000
0000
0000
0000
0000
0000
0000
0000
0000
0011
0000
0000
0000
0000
0000
0000
0000
0110
0000
0000
0000
0000
0000
0000
0000
0000
0000
0000
0000
0000
0000
0000
0000
1001
0000
0000
0000
0000
0000
0000
0000
1100
0000
0000
0000
0000
0000
0000
0000
0000
0000
0000
0000
0000
0000
0000
0000
1010
0000
0000
0000
0000
0000
0000
0000
0011
0000
0000
0000
0000
0000
0000
0000
0000
0000
0000
0000
0000
0000
0000
0000
0101
0000
0000
0000
0000
0000
0000
0000
1100
0000
0000
0000
0000
0000
0000
0000
0000
0000
0000
0000
0000
0000
0000
0000
0000
0000
0000
0000
0000
0000
0000
0000
1010
0000
0000
0000
0000
0000
1010
0000
0000
0000
0000
0000
0000
0000
0000
0000
1010
0000
0000
0000
0000
0000
0000
0000
,
0101
0000
0000
0101
0101
0000
0000
0000
0000
0000
0000
0000
0110
0000
0000
0000
1010
0000
0011
0000
0000
0000
0101
0000
1100
0000
0000
0000
0110
0000
1010
0000
0000
0000
1010
0000
1010
0000
0000
0000
0110
0000
1100
0000
0000
0000
0011
0000
,
0110
0000
1100
1001
0000
0101
0101
0000
0011
0110
0000
0110
1010
0000
1010
0101
0000
0011
0011
0000
0110
1100
0000
0011
,
0110
0000
1010
1010
0000
0110
0101
0000
1100
0101
0000
0110
0011
0000
0011
1100
0000
0110
0110
0000
1100
1001
0000
0110
,
0011
0000
0101
1100
0000
0011
0110
0000
1010
1001
0000
0011
0011
0000
0110
0110
0000
0011
1100
0000
1100
0110
0000
0110
,
0011
0000
1001
1100
0000
0011
0110
0000
1100
0011
0000
0110
0110
0000
0101
1100
0000
1010
1001
0000
1010
0011
0000
0101
,
0110
0000
1010
0101
0000
0101
1010
0000
0101
0110
0000
1010
0101
0000
0110
0011
0000
1001
1100
0000
0011
0110
0000
1001
,
1001
0000
0000
0000
0110
0000
1001
1100
0101
1001
1010
0011
0101
0000
0000
0000
0000
0000
0000
0000
0000
0000
0000
0000
0000
0000
0000
0000
0000
0000
0000
0000
0000
0000
0000
0000
0000
0000
0000
0000
0000
0000
0000
0000
0000
0000
0000
0000
;
